<?xml version="1.0" standalone="no"?>
<!DOCTYPE svg PUBLIC "-//W3C//DTD SVG 1.1//EN" "http://www.w3.org/Graphics/SVG/1.1/DTD/svg11.dtd" >
<svg xmlns="http://www.w3.org/2000/svg">
<metadata>Generated by IcoMoon</metadata>
<defs>
<font id="erpanel" horiz-adv-x="1024">
<font-face units-per-em="1024" ascent="960" descent="-64" />
<missing-glyph horiz-adv-x="1024" />
<glyph unicode="&#x20;" horiz-adv-x="512" d="" />
<glyph unicode="&#xe900;" glyph-name="eye" d="M145.372 614.627c76.283 76.283 195.984 153.373 366.628 153.373s290.346-77.090 366.627-153.373c38.048-38.048 65.485-76.042 83.453-104.576 8.998-14.294 15.667-26.285 20.141-34.829 2.24-4.272 3.933-7.69 5.094-10.106 0.582-1.21 1.034-2.17 1.354-2.861l0.384-0.835 0.118-0.266 0.042-0.093 0.016-0.035c0 0 0.013-0.032-29.229-13.027 29.242-12.995 29.229-13.027 29.229-13.027l-0.016-0.035-0.042-0.093-0.118-0.266-0.384-0.835c-0.32-0.691-0.771-1.651-1.354-2.861-1.162-2.416-2.854-5.834-5.094-10.106-4.474-8.544-11.142-20.534-20.141-34.829-17.968-28.534-45.405-66.528-83.453-104.576-76.282-76.282-195.984-153.373-366.627-153.373s-290.345 77.091-366.628 153.373c-38.049 38.048-65.485 76.042-83.452 104.576-8.999 14.294-15.668 26.285-20.142 34.829-2.238 4.272-3.931 7.69-5.095 10.106-0.582 1.21-1.032 2.17-1.352 2.861l-0.383 0.835-0.161 0.358-0.016 0.035c0 0-0.013 0.032 29.229 13.027-29.242 12.995-29.229 13.027-29.229 13.027l0.016 0.035 0.161 0.358 0.383 0.835c0.32 0.691 0.77 1.651 1.352 2.861 1.164 2.416 2.857 5.834 5.095 10.106 4.475 8.544 11.143 20.534 20.142 34.829 17.966 28.534 45.403 66.528 83.452 104.576zM64 448l-29.242-12.995c-3.677 8.272-3.677 17.718 0 25.99l29.242-12.995zM99.78 448c3.765-7.053 9.171-16.627 16.3-27.949 16.034-25.466 40.597-59.472 74.548-93.424 67.717-67.718 172.016-134.627 321.372-134.627s253.654 66.909 321.373 134.627c33.952 33.952 58.515 67.958 74.547 93.424 7.13 11.322 12.534 20.896 16.301 27.949-3.766 7.053-9.171 16.627-16.301 27.949-16.032 25.466-40.595 59.472-74.547 93.424-67.718 67.718-172.016 134.627-321.373 134.627s-253.655-66.909-321.372-134.627c-33.951-33.952-58.515-67.958-74.548-93.424-7.129-11.322-12.535-20.896-16.3-27.949zM960 448l29.242 12.995c3.677-8.272 3.677-17.718 0-25.99l-29.242 12.995zM512 576c-70.691 0-128-57.309-128-128s57.309-128 128-128c70.691 0 128 57.309 128 128s-57.309 128-128 128zM320 448c0 106.038 85.962 192 192 192s192-85.962 192-192c0-106.038-85.962-192-192-192s-192 85.962-192 192z" />
<glyph unicode="&#xe901;" glyph-name="lock-key" d="M704 640h128c35.36 0 64-28.64 64-64v-448c0-35.36-28.64-64-64-64h-640c-35.36 0-64 28.64-64 64v448c0 35.36 28.64 64 64 64h128v96c0 50.912 20.224 99.744 56.224 135.776 36.032 36 84.864 56.224 135.776 56.224s99.744-20.224 135.776-56.224c36-36.032 56.224-84.864 56.224-135.776v-96zM192 576v-448h640v448h-640zM512 864c-33.952 0-66.496-13.472-90.496-37.504-24.032-24-37.504-56.544-37.504-90.496v-96h256v96c0 33.952-13.472 66.496-37.504 90.496-24 24.032-56.544 37.504-90.496 37.504zM400 400c0 61.856 50.144 112 112 112s112-50.144 112-112c0-50.752-33.728-93.6-80-107.36v-68.64c0-17.664-14.336-32-32-32s-32 14.336-32 32v68.64c-46.272 13.76-80 56.608-80 107.36zM512 448c-26.496 0-48-21.504-48-48s21.504-48 48-48c26.496 0 48 21.504 48 48s-21.504 48-48 48z" />
<glyph unicode="&#xe902;" glyph-name="sign-out" d="M512 800c0-17.673 14.326-32 32-32h224v-640h-224c-17.674 0-32-14.326-32-32s14.326-32 32-32h224c16.973 0 33.251 6.742 45.254 18.746s18.746 28.282 18.746 45.254v640c0 16.974-6.742 33.252-18.746 45.255s-28.282 18.745-45.254 18.745h-224c-17.674 0-32-14.327-32-32zM361.373 630.627c-12.496-12.496-12.496-32.758 0-45.254l105.373-105.373h-370.746c-17.673 0-32-14.326-32-32s14.327-32 32-32h370.746l-105.373-105.373c-12.496-12.496-12.496-32.758 0-45.254s32.758-12.496 45.254 0l160 160c12.496 12.496 12.496 32.758 0 45.254l-160 160c-12.496 12.497-32.758 12.497-45.254 0z" />
<glyph unicode="&#xe903;" glyph-name="user" d="M511.997 800c123.712 0 224-100.288 224-224s-100.288-224-224-224c-123.712 0-223.999 100.288-223.999 224s100.287 224 223.999 224zM659.546 328.618c84.125 50.282 140.451 142.253 140.451 247.382 0 159.058-128.941 288-288 288-159.056 0-287.999-128.942-287.999-288 0-105.13 56.328-197.101 140.451-247.382-112.54-36.95-205.455-115.174-264.147-216.589-8.852-15.296-3.628-34.874 11.668-43.725s34.872-3.629 43.725 11.667c72.168 124.701 202.719 208.029 356.303 208.029 153.587 0 284.138-83.328 356.304-208.029 8.851-15.296 28.429-20.518 43.725-11.667s20.522 28.429 11.667 43.725c-58.691 101.414-151.606 179.638-264.147 216.589z" />
<glyph unicode="&#xe904;" glyph-name="attachment" d="M838.64 470.643c2.976-2.973 5.338-6.502 6.947-10.387s2.438-8.048 2.438-12.253c0-4.205-0.829-8.368-2.438-12.253s-3.971-7.414-6.947-10.387l-328.198-328c-42.016-42.010-98.998-65.61-158.416-65.606-59.414 0.003-116.394 23.61-158.404 65.626s-65.609 98.998-65.605 158.416c0.004 59.414 23.61 116.394 65.626 158.406l397.040 402.878c29.997 30.028 70.691 46.91 113.136 46.932 42.442 0.022 83.155-16.817 113.184-46.812s46.909-70.692 46.931-113.135c0.022-42.443-16.816-83.156-46.813-113.185l-397.12-402.88c-18.032-18.035-42.493-28.166-68-28.166-25.504 0-49.964 10.131-67.999 28.166s-28.167 42.496-28.167 68c0 25.504 10.132 49.965 28.167 68l333.199 338.48c2.922 3.114 6.432 5.612 10.33 7.348 3.901 1.736 8.106 2.675 12.374 2.76 4.266 0.086 8.509-0.683 12.474-2.26s7.574-3.933 10.618-6.926c3.040-2.994 5.453-6.566 7.094-10.506 1.638-3.94 2.477-8.168 2.458-12.436s-0.89-8.489-2.563-12.415c-1.674-3.926-4.115-7.478-7.184-10.445l-333.238-338.842c-2.986-2.96-5.357-6.477-6.979-10.352-1.622-3.878-2.467-8.035-2.486-12.24-0.016-4.202 0.797-8.368 2.39-12.256 1.59-3.888 3.936-7.427 6.896-10.41 2.96-2.986 6.477-5.357 10.355-6.979 3.875-1.626 8.032-2.467 12.237-2.486 4.202-0.016 8.368 0.797 12.256 2.387 3.891 1.594 7.427 3.936 10.41 6.896l397.082 402.682c18.035 17.997 28.182 42.422 28.208 67.901s-10.070 49.924-28.067 67.959c-18 18.035-42.422 28.181-67.901 28.208-25.482 0.026-49.926-10.070-67.962-28.068l-396.959-402.72c-14.871-14.848-26.672-32.477-34.729-51.885s-12.213-40.214-12.229-61.229c-0.017-21.014 4.106-41.824 12.132-61.245s19.799-37.072 34.646-51.942c14.847-14.87 32.478-26.672 51.886-34.73 19.408-8.054 40.213-12.211 61.227-12.227s41.824 4.106 61.245 12.131c19.421 8.026 37.072 19.798 51.942 34.646l328.24 328c6.022 5.974 14.17 9.315 22.653 9.286 8.483-0.032 16.608-3.427 22.586-9.446z" />
<glyph unicode="&#xe905;" glyph-name="back" d="M470.627 758.628c12.496-12.497 12.496-32.758 0-45.255l-233.372-233.372h626.745c17.674 0 32-14.326 32-32s-14.326-32-32-32h-626.745l233.372-233.373c12.496-12.496 12.496-32.758 0-45.254s-32.758-12.496-45.254 0l-288 288c-12.497 12.496-12.497 32.758 0 45.254l288 288c12.496 12.497 32.758 12.497 45.254 0z" />
<glyph unicode="&#xe906;" glyph-name="chevron-down" d="M169.372 598.627c12.497 12.496 32.758 12.496 45.255 0l297.372-297.373 297.373 297.373c12.496 12.496 32.758 12.496 45.254 0s12.496-32.758 0-45.254l-320-320c-12.496-12.496-32.758-12.496-45.254 0l-320 320c-12.497 12.496-12.497 32.758 0 45.254z" />
<glyph unicode="&#xe907;" glyph-name="chat" d="M109.363 223.908l-39.045-137.882c-3.174-10.844-3.369-22.6-0.512-33.792 2.867-11.203 8.684-21.412 16.855-29.573 8.172-8.172 18.381-13.998 29.573-16.855s22.938-2.662 34.028 0.584c-0.236-0.072 137.646 38.973 137.646 38.973 94.177-52.429 203.93-70.236 310.108-50.063 0 0 0 0 0 0 110.275 20.951 209.111 81.439 277.944 170.097 68.844 88.668 102.963 199.404 95.939 311.429s-54.692 217.641-134.062 297.011c0 0 0 0 0 0-79.38 79.37-184.986 127.037-297.011 134.062-112.036 7.014-222.771-27.095-311.429-95.928-88.658-68.844-149.146-167.68-170.097-277.955-20.173-106.168-2.365-215.91 50.063-310.108zM168.090 219.884c2.15 7.598 1.085 15.739-2.939 22.528-50.084 84.49-67.594 184.361-49.265 280.852s71.26 182.968 148.838 243.21c77.578 60.232 174.469 90.081 272.497 83.937s190.433-47.852 259.881-117.309c69.448-69.448 111.165-161.864 117.309-259.881 6.144-98.028-23.706-194.918-83.948-272.497 0 0 0 0 0 0-60.232-77.578-146.708-130.499-243.2-148.838-96.492-18.33-196.362-0.809-280.852 49.265-6.789 4.024-14.93 5.089-22.528 2.939l-149.791-42.414c-1.167-0.348-2.406-0.369-3.584-0.061 0 0-0.010 0-0.020 0-1.167 0.307-2.243 0.911-3.092 1.772-0.010 0-0.010 0.010-0.020 0.010-0.85 0.86-1.464 1.935-1.761 3.103 0 0 0 0 0 0-0.307 1.188-0.287 2.427 0.061 3.594l42.414 149.791zM512.451 394.394c29.85 0 54.057 24.197 54.057 54.057 0 29.85-24.207 54.057-54.057 54.057-29.86 0-54.057-24.207-54.057-54.057 0-29.86 24.197-54.057 54.057-54.057zM296.223 394.394c29.86 0 54.057 24.197 54.057 54.057 0 29.85-24.197 54.057-54.057 54.057-29.85 0-54.057-24.207-54.057-54.057 0-29.86 24.207-54.057 54.057-54.057zM728.678 394.394c29.85 0 54.057 24.197 54.057 54.057 0 29.85-24.207 54.057-54.057 54.057-29.86 0-54.067-24.207-54.067-54.057 0-29.86 24.207-54.057 54.067-54.057z" />
<glyph unicode="&#xe908;" glyph-name="chevron-up" d="M489.373 662.628c12.496 12.497 32.758 12.497 45.254 0l320-320c12.496-12.496 12.496-32.758 0-45.254s-32.758-12.496-45.254 0l-297.373 297.373-297.372-297.373c-12.497-12.496-32.758-12.496-45.255 0s-12.497 32.758 0 45.254l320 320z" />
<glyph unicode="&#xe909;" glyph-name="message" d="M96 736c0 17.673 14.327 32 32 32h768c17.674 0 32-14.327 32-32v-544c0-16.973-6.742-33.251-18.746-45.254s-28.282-18.746-45.254-18.746h-704c-16.974 0-33.252 6.742-45.255 18.746s-18.745 28.282-18.745 45.254v544zM210.266 704l252.803-231.738c0.49-0.422 0.97-0.861 1.44-1.318l47.491-43.533 47.52 43.558c0.451 0.438 0.912 0.861 1.382 1.27l252.832 231.76h-603.469zM864 663.257l-234.835-215.263 234.835-215.267v430.53zM813.718 192l-231.91 212.582-48.186-44.173c-12.234-11.213-31.011-11.213-43.245 0l-48.186 44.173-231.907-212.582h603.434zM160 232.726l234.835 215.264-234.835 215.266v-430.53z" />
<glyph unicode="&#xe90a;" glyph-name="edit" d="M640.019 845.27c12.003 11.993 28.275 18.73 45.242 18.73s33.238-6.737 45.238-18.73l178.762-178.64c11.994-12.001 18.746-28.287 18.746-45.254s-6.739-33.242-18.733-45.242l-117.219-117.248c-0.458-0.518-0.931-1.027-1.427-1.523-0.493-0.493-0.998-0.966-1.517-1.421l-327.869-327.949h402.758c17.674 0 32-14.326 32-32s-14.326-32-32-32h-672c-16.974 0-33.252 6.746-45.255 18.746-12.003 12.003-18.745 28.282-18.745 45.254v178.762c0.008 16.95 6.74 33.222 18.72 45.216l493.299 493.299zM383.997 141.251l338.704 338.784-66.701 66.701-338.745-338.742 66.742-66.742zM272 253.248l338.746 338.746-66.746 66.745-338.747-338.745 66.747-66.746zM192 242.736v-114.742h114.744l-114.744 114.742zM589.254 703.994l89.357-89.357c0.006-0.006-0.006 0.003 0 0 0.006-0.006 0.026-0.029 0.032-0.032l89.306-89.309 96.058 96.080-178.746 178.624-96.006-96.006z" />
<glyph unicode="&#xe90b;" glyph-name="plus" d="M896 448c0-8.486-3.373-16.627-9.373-22.627s-14.141-9.373-22.627-9.373h-320v-320c0-8.486-3.373-16.627-9.373-22.627s-14.141-9.373-22.627-9.373c-8.486 0-16.627 3.373-22.627 9.373s-9.373 14.141-9.373 22.627v320h-320c-8.487 0-16.626 3.373-22.628 9.373s-9.372 14.141-9.372 22.627c0 8.486 3.372 16.627 9.372 22.627s14.14 9.373 22.628 9.373h320v320c0 8.487 3.373 16.626 9.373 22.628s14.141 9.372 22.627 9.372c8.486 0 16.627-3.372 22.627-9.372s9.373-14.14 9.373-22.628v-320h320c8.486 0 16.627-3.373 22.627-9.373s9.373-14.141 9.373-22.627z" />
<glyph unicode="&#xe90c;" glyph-name="last" d="M106.373 647.547c0 47.503 0 121.62 0 121.62 0 15.217-12.36 27.587-27.587 27.587s-27.587-12.37-27.587-27.587v-188.099c0-15.237 12.349-27.587 27.587-27.587h188.099c15.227 0 27.587 12.36 27.587 27.587s-12.36 27.587-27.587 27.587h-121.364l112.66 112.333c54.006 54.047 122.819 90.86 197.755 105.789 74.926 14.93 152.596 7.301 223.191-21.924s130.929-78.725 173.384-142.244c42.455-63.519 65.116-138.209 65.116-214.61s-22.661-151.091-65.116-214.61c-42.455-63.519-102.789-113.019-173.384-142.244s-148.265-36.854-223.191-21.924c0 0 0 0 0 0-74.936 14.92-143.749 51.743-197.755 105.789-10.762 10.772-28.242 10.772-39.014 0.010-10.762-10.762-10.772-28.242-0.010-39.014 61.716-61.757 140.36-103.844 225.997-120.893 85.637-17.070 174.408-8.346 255.078 25.047 80.681 33.403 149.637 89.979 198.154 162.57 48.517 72.602 74.414 157.952 74.414 245.268s-25.897 172.667-74.414 245.268c-48.517 72.591-117.473 129.167-198.154 162.57-80.671 33.393-169.441 42.117-255.078 25.057 0 0 0 0 0 0-85.637-17.060-164.28-59.136-225.997-120.904l-112.783-112.445zM503.562 448.164c0-0.154 0-0.307 0-0.461 0.061-5.294 1.608-10.24 4.25-14.418 1.905-3.021 4.413-5.714 7.485-7.864 0.809-0.573 1.659-1.106 2.54-1.587l195.154-112.589c13.189-7.608 30.075-3.082 37.683 10.107s3.072 30.075-10.117 37.683l-181.821 104.899v209.777c0 15.227-12.36 27.587-27.587 27.587s-27.587-12.36-27.587-27.587v-225.546z" />
<glyph unicode="&#xe90d;" glyph-name="print" d="M858.678 672h-58.678v128c0 8.487-3.373 16.626-9.373 22.628s-14.141 9.372-22.627 9.372h-512c-8.487 0-16.626-3.372-22.628-9.372s-9.372-14.14-9.372-22.628v-128h-58.68c-55.88 0-101.32-43.082-101.32-96v-320c0-8.486 3.372-16.627 9.372-22.627s14.14-9.373 22.628-9.373h128v-128c0-8.486 3.372-16.627 9.372-22.627s14.14-9.373 22.628-9.373h512c8.486 0 16.627 3.373 22.627 9.373s9.373 14.141 9.373 22.627v128h128c8.486 0 16.627 3.373 22.627 9.373s9.373 14.141 9.373 22.627v320c0 52.918-45.44 96-101.322 96zM288 768h448v-96h-448v96zM736 128h-448v192h448v-192zM896 288h-96v64c0 8.486-3.373 16.627-9.373 22.627s-14.141 9.373-22.627 9.373h-512c-8.487 0-16.626-3.373-22.628-9.373s-9.372-14.141-9.372-22.627v-64h-96v288c0 17.638 16.76 32 37.32 32h693.358c20.56 0 37.322-14.362 37.322-32v-288zM800 496c0-9.494-2.816-18.774-8.090-26.669-5.274-7.891-12.771-14.045-21.542-17.677-8.771-3.635-18.422-4.586-27.731-2.733-9.312 1.853-17.866 6.426-24.579 13.136-6.71 6.714-11.283 15.267-13.136 24.579-1.853 9.309-0.899 18.96 2.733 27.731s9.786 16.269 17.677 21.542c7.894 5.274 17.174 8.090 26.669 8.090 12.73 0 24.941-5.056 33.942-14.058s14.058-21.213 14.058-33.942z" />
<glyph unicode="&#xe90e;" glyph-name="list" d="M128 704c0-17.673 14.327-32 32-32h704c17.674 0 32 14.327 32 32s-14.326 32-32 32h-704c-17.673 0-32-14.327-32-32zM128 448c0-17.674 14.327-32 32-32h704c17.674 0 32 14.326 32 32s-14.326 32-32 32h-704c-17.673 0-32-14.326-32-32zM128 192c0-17.674 14.327-32 32-32h704c17.674 0 32 14.326 32 32s-14.326 32-32 32h-704c-17.673 0-32-14.326-32-32z" />
<glyph unicode="&#xe90f;" glyph-name="visit" d="M854.64 630.64l-224 224c-2.973 2.971-6.506 5.326-10.387 6.932-3.885 1.606-8.048 2.431-12.253 2.428h-384c-16.974 0-33.252-6.743-45.255-18.745s-18.745-28.281-18.745-45.255v-704c0-16.973 6.743-33.251 18.745-45.254s28.281-18.746 45.255-18.746h576c16.973 0 33.251 6.742 45.254 18.746s18.746 28.282 18.746 45.254v512c0.003 4.205-0.822 8.368-2.429 12.25-1.606 3.885-3.962 7.418-6.931 10.39zM640 754.76l114.762-114.76h-114.762v114.76zM800 96h-576v704h352v-192c0-8.486 3.373-16.627 9.373-22.627s14.141-9.373 22.627-9.373h192v-480zM672 416c0-8.486-3.373-16.627-9.373-22.627s-14.141-9.373-22.627-9.373h-256c-8.486 0-16.627 3.373-22.627 9.373s-9.373 14.141-9.373 22.627c0 8.486 3.373 16.627 9.373 22.627s14.141 9.373 22.627 9.373h256c8.486 0 16.627-3.373 22.627-9.373s9.373-14.141 9.373-22.627zM672 288c0-8.486-3.373-16.627-9.373-22.627s-14.141-9.373-22.627-9.373h-256c-8.486 0-16.627 3.373-22.627 9.373s-9.373 14.141-9.373 22.627c0 8.486 3.373 16.627 9.373 22.627s14.141 9.373 22.627 9.373h256c8.486 0 16.627-3.373 22.627-9.373s9.373-14.141 9.373-22.627z" />
<glyph unicode="&#xe910;" glyph-name="add-app" d="M557.18 202.457h168.339c17.129 0 31.030 13.902 31.030 31.030 0 17.098-13.902 31.030-31.030 31.030h-168.339c-17.129 0-31.030-13.933-31.030-31.030 0-17.129 13.902-31.030 31.030-31.030zM379.439 366.049h-70.501c-17.129 0-31.030-13.902-31.030-31.030s13.902-31.030 31.030-31.030h70.501v-70.501c0-17.129 13.902-31.030 31.030-31.030s31.030 13.902 31.030 31.030v70.501h70.501c17.129 0 31.030 13.902 31.030 31.030s-13.902 31.030-31.030 31.030h-70.501v70.501c0 17.129-13.902 31.030-31.030 31.030s-31.030-13.902-31.030-31.030v-70.501zM650.271 303.988h75.248c17.129 0 31.030 13.902 31.030 31.030s-13.902 31.030-31.030 31.030h-75.248c-17.129 0-31.030-13.902-31.030-31.030s13.902-31.030 31.030-31.030zM557.18 405.52h168.339c17.129 0 31.030 13.902 31.030 31.030s-13.902 31.030-31.030 31.030h-168.339c-17.129 0-31.030-13.902-31.030-31.030s13.902-31.030 31.030-31.030zM849.486 613.64l-217.212 217.212c-2.886 2.886-6.299 5.182-10.085 6.734-3.755 1.552-7.789 2.358-11.854 2.358h-372.395c-16.446 0-32.24-6.547-43.877-18.184s-18.184-27.431-18.184-43.877v-682.667c0-16.477 6.547-32.24 18.184-43.877s27.431-18.184 43.877-18.184h558.576c16.446 0 32.24 6.547 43.877 18.184s18.184 27.4 18.184 43.877v496.485c0 4.065-0.807 8.099-2.358 11.885-1.583 3.755-3.848 7.168-6.734 10.054zM597.488 777.883l199.028-199.028v-483.638h-558.576v682.667h359.548zM579.305 779.435v-187.733c0-8.223 3.258-16.136 9.061-21.938 5.834-5.834 13.715-9.092 21.969-9.092h194.219v62.061h-163.188v156.703h-62.061z" />
<glyph unicode="&#xe911;" glyph-name="add-prev" d="M175.879 560.544c0-17.129 13.933-31.030 31.030-31.030 17.129 0 31.030 13.902 31.030 31.030v217.335h341.365v-186.181c0-8.223 3.258-16.105 9.061-21.938 5.834-5.834 13.715-9.092 21.969-9.092h186.182v-465.455h-113.85c-17.129 0-31.030-13.902-31.030-31.030s13.902-31.030 31.030-31.030h113.85c16.446 0 32.24 6.547 43.877 18.184s18.184 27.431 18.184 43.877v496.485c0 4.065-0.807 8.13-2.358 11.885-1.583 3.755-3.848 7.199-6.734 10.085l-217.212 217.211c-2.886 2.855-6.299 5.151-10.085 6.703-3.755 1.552-7.789 2.358-11.854 2.358h-372.396c-16.446 0-32.24-6.547-43.877-18.184s-18.184-27.4-18.184-43.877v-217.335zM238.188 441.17c10.923 12.443 18.339 21.070 22.745 25.476 52.815 52.814 94.861 79.717 182.614 79.717 141.622 0 256.59-114.967 256.59-256.59s-114.967-256.621-256.59-256.621c-62.774 0-120.304 22.59-164.927 60.044-13.095 11.016-14.801 30.627-3.786 43.722 11.016 13.126 30.596 14.832 43.723 3.817 33.792-28.393 77.421-45.521 124.99-45.521 107.365 0 194.529 87.164 194.529 194.56 0 107.365-87.164 194.529-194.529 194.529-66.839 0-98.49-21.318-138.737-61.533-4.748-4.748-13.033-14.522-25.538-28.734l27.183 0.31c17.13 0.217 31.186-13.529 31.404-30.658 0.186-17.129-13.56-31.185-30.69-31.372l-129.738-1.552-1.52 129.769c-0.217 17.129 13.529 31.185 30.658 31.403 17.129 0.186 31.185-13.56 31.372-30.658l0.248-20.108zM412.517 296.6v116.208c0 17.129 13.902 31.030 31.030 31.030s31.030-13.902 31.030-31.030v-105.658l90.112-55.079c14.615-8.937 19.239-28.051 10.302-42.667s-28.051-19.239-42.667-10.302l-99.142 60.633c-7.354 2.576-13.405 7.882-17.036 14.677-3.91 6.609-5.244 14.553-3.631 22.187zM641.365 734.002l111.275-111.273h-111.275v111.273z" />
<glyph unicode="&#xe912;" glyph-name="delete" d="M348.118 867.882c18.003 18.004 42.422 28.118 67.882 28.118h192c25.459 0 49.878-10.114 67.882-28.118s28.118-42.421 28.118-67.882v-32h160c17.674 0 32-14.327 32-32s-14.326-32-32-32h-32v-576c0-16.973-6.742-33.251-18.746-45.254s-28.282-18.746-45.254-18.746h-512c-16.974 0-33.252 6.742-45.255 18.746s-18.745 28.282-18.745 45.254v576h-32c-17.673 0-32 14.327-32 32s14.327 32 32 32h160v32c0 25.461 10.115 49.879 28.118 67.882zM256 704v-576h512v576h-512zM640 768v32c0 8.487-3.373 16.626-9.373 22.628s-14.141 9.372-22.627 9.372h-192c-8.486 0-16.627-3.372-22.627-9.372s-9.373-14.14-9.373-22.628v-32h256zM416 576c-17.674 0-32-14.326-32-32v-256c0-17.674 14.326-32 32-32s32 14.326 32 32v256c0 17.674-14.326 32-32 32zM576 544v-256c0-17.674 14.326-32 32-32s32 14.326 32 32v256c0 17.674-14.326 32-32 32s-32-14.326-32-32z" />
<glyph unicode="&#xe913;" glyph-name="send" horiz-adv-x="1056" d="M920.538 845.285c-8.048 8.043-18.093 13.795-29.104 16.663s-22.586 2.75-33.536-0.343h-0.598l-767.761-232.959c-12.498-3.597-23.604-10.912-31.84-20.976s-13.211-22.397-14.262-35.36c-1.051-12.96 1.871-25.936 8.378-37.194 6.507-11.261 16.289-20.272 28.044-25.83l342.481-162.202 162.198-342.48c5.12-10.966 13.274-20.24 23.494-26.726s22.083-9.91 34.186-9.872c1.84 0 3.68 0.080 5.52 0.24 12.915 1.043 25.203 6.016 35.213 14.246 10.010 8.227 17.264 19.322 20.787 31.792l232.8 767.76c0 0.2 0 0.4 0 0.6 3.133 10.921 3.302 22.48 0.493 33.489-2.813 11.009-8.506 21.070-16.493 29.151zM642.579 32.605l-0.202-0.56-157.44 332.362 188.96 188.998c5.747 6.051 8.906 14.106 8.8 22.451-0.109 8.342-3.472 16.317-9.373 22.218s-13.872 9.264-22.218 9.37c-8.342 0.106-16.4-3.050-22.448-8.797l-189.002-188.96-331.839 157.44 767.439 232.879-232.678-767.4z" />
<glyph unicode="&#xe914;" glyph-name="save" d="M832 832h-466.758c-8.41 0.027-16.739-1.618-24.506-4.838s-14.813-7.953-20.736-13.922l-173.24-173.24c-5.969-5.923-10.701-12.97-13.922-20.736s-4.865-16.096-4.838-24.506v-466.758c0-16.973 6.743-33.251 18.745-45.254s28.281-18.746 45.255-18.746h640c16.973 0 33.251 6.742 45.254 18.746s18.746 28.282 18.746 45.254v640c0 16.974-6.742 33.252-18.746 45.255s-28.282 18.745-45.254 18.745zM832 128h-640v466.758l173.241 173.241h306.758v-128h-320c-8.486 0-16.627-3.373-22.627-9.373s-9.373-14.141-9.373-22.627c0-8.486 3.373-16.627 9.373-22.627 6-6.003 14.141-9.373 22.627-9.373h320c16.973 0 33.251 6.742 45.254 18.746 12.003 12 18.746 28.282 18.746 45.254v128h96v-640zM512 512c-31.645 0-62.579-9.386-88.89-26.966-26.314-17.581-46.819-42.57-58.931-71.805-12.109-29.235-15.277-61.408-9.104-92.445s21.411-59.546 43.789-81.92c22.374-22.378 50.886-37.616 81.923-43.789 31.037-6.176 63.206-3.005 92.442 9.104 29.238 12.109 54.227 32.618 71.808 58.928 17.581 26.314 26.963 57.248 26.963 88.893 0 42.435-16.858 83.13-46.864 113.136-30.003 30.006-70.701 46.864-113.136 46.864zM512 256c-18.986 0-37.549 5.629-53.334 16.179-15.786 10.547-28.093 25.542-35.357 43.082-7.267 17.542-9.168 36.845-5.462 55.469 3.702 18.621 12.845 35.728 26.272 49.152 13.424 13.427 30.531 22.57 49.152 26.272 18.624 3.706 37.926 1.805 55.469-5.462 17.539-7.264 32.534-19.571 43.082-35.357 10.55-15.786 16.179-34.349 16.179-53.334 0-25.462-10.115-49.878-28.118-67.882s-42.419-28.118-67.882-28.118z" />
<glyph unicode="&#xe915;" glyph-name="calendar" d="M832 832h-96v32c0 8.487-3.373 16.626-9.373 22.628s-14.141 9.372-22.627 9.372c-8.486 0-16.627-3.372-22.627-9.372s-9.373-14.14-9.373-22.628v-32h-320v32c0 8.487-3.373 16.626-9.373 22.628s-14.141 9.372-22.627 9.372c-8.487 0-16.626-3.372-22.628-9.372s-9.372-14.14-9.372-22.628v-32h-96c-16.974 0-33.252-6.743-45.255-18.745s-18.745-28.281-18.745-45.255v-640c0-16.973 6.743-33.251 18.745-45.254s28.281-18.746 45.255-18.746h640c16.973 0 33.251 6.742 45.254 18.746s18.746 28.282 18.746 45.254v640c0 16.974-6.742 33.252-18.746 45.255s-28.282 18.745-45.254 18.745zM288 768v-32c0-8.487 3.372-16.626 9.372-22.628s14.14-9.372 22.628-9.372c8.486 0 16.627 3.372 22.627 9.372s9.373 14.14 9.373 22.628v32h320v-32c0-8.487 3.373-16.626 9.373-22.628s14.141-9.372 22.627-9.372c8.486 0 16.627 3.372 22.627 9.372s9.373 14.14 9.373 22.628v32h96v-128h-640v128h96zM832 128h-640v448h640v-448z" />
<glyph unicode="&#xe916;" glyph-name="file-jpg" d="M178.745 845.255c-12.003-12.002-18.745-28.281-18.745-45.255v-288c0-17.674 14.327-32 32-32s32 14.326 32 32v288h352v-192c0-17.674 14.326-32 32-32h192v-64c0-17.674 14.326-32 32-32s32 14.326 32 32v96c0 8.486-3.373 16.627-9.373 22.627l-224 224c-6 6.001-14.141 9.372-22.627 9.372h-384c-16.974 0-33.252-6.743-45.255-18.745zM640 754.745l114.746-114.745h-114.746v114.745zM288 384c-17.673 0-32-14.326-32-32v-152c0-10.608-4.214-20.784-11.716-28.285s-17.676-11.715-28.284-11.715c-10.609 0-20.783 4.214-28.284 11.715s-11.716 17.677-11.716 28.285c0 17.674-14.327 32-32 32s-32-14.326-32-32c0-27.584 10.957-54.035 30.461-73.539s45.957-30.461 73.539-30.461c27.582 0 54.035 10.957 73.539 30.461s30.461 45.955 30.461 73.539v152c0 17.674-14.327 32-32 32zM384 352c0 17.674 14.326 32 32 32h64c29.706 0 58.192-11.798 79.197-32.803s32.803-49.491 32.803-79.197c0-29.706-11.798-58.192-32.803-79.197s-49.491-32.803-79.197-32.803h-32v-32c0-17.674-14.326-32-32-32s-32 14.326-32 32v224zM448 224h32c12.73 0 24.941 5.056 33.942 14.058s14.058 21.213 14.058 33.942c0 12.73-5.056 24.941-14.058 33.942s-21.213 14.058-33.942 14.058h-32v-96zM767.955 320c10.682-0.042 21.104-3.306 29.904-9.36 14.557-10.019 34.483-6.339 44.502 8.218 10.019 14.56 6.339 34.483-8.221 44.502-19.434 13.376-42.454 20.57-66.045 20.64h-0.096c-75.123 0-128-69.29-128-144s52.877-144.003 128-144.003l0.387 0.006c16.406 0.198 32.595 3.744 47.581 10.422s28.448 16.346 39.565 28.413c5.446 5.907 8.467 13.648 8.467 21.683v67.478c0 17.674-14.326 32-32 32h-32c-17.674 0-32-14.326-32-32s14.326-32 32-32v-21.312c-3.142-2.269-6.522-4.218-10.083-5.805-6.963-3.104-14.483-4.765-22.109-4.883-30.822 0.128-63.808 31.13-63.808 80 0 48.947 33.088 79.968 63.955 80z" />
<glyph unicode="&#xe917;" glyph-name="file-pdf" d="M178.745 845.255c-12.003-12.002-18.745-28.281-18.745-45.255v-288c0-17.674 14.327-32 32-32s32 14.326 32 32v288h352v-192c0-17.674 14.326-32 32-32h192v-64c0-17.674 14.326-32 32-32s32 14.326 32 32v96c0 8.486-3.373 16.627-9.373 22.627l-224 224c-6 6.001-14.141 9.372-22.627 9.372h-384c-16.974 0-33.252-6.743-45.255-18.745zM640 754.745l114.746-114.745h-114.746v114.745zM160 352c0 17.674 14.327 32 32 32h64c29.704 0 58.192-11.798 79.197-32.803s32.803-49.491 32.803-79.197c0-29.706-11.798-58.192-32.803-79.197s-49.492-32.803-79.197-32.803h-32v-32c0-17.674-14.327-32-32-32s-32 14.326-32 32v224zM224 224h32c12.73 0 24.94 5.056 33.941 14.058s14.059 21.213 14.059 33.942c0 12.73-5.057 24.941-14.059 33.942s-21.211 14.058-33.941 14.058h-32v-96zM416 352c0 17.674 14.326 32 32 32h64c38.192 0 74.819-15.171 101.824-42.176s42.176-63.632 42.176-101.824c0-38.192-15.171-74.819-42.176-101.824s-63.632-42.176-101.824-42.176h-64c-17.674 0-32 14.326-32 32v224zM480 320v-160h32c21.216 0 41.565 8.429 56.57 23.43 15.002 15.005 23.43 35.354 23.43 56.57s-8.429 41.565-23.43 56.57c-15.005 15.002-35.354 23.43-56.57 23.43h-32zM704 352v-224c0-17.674 14.326-32 32-32s32 14.326 32 32v64h64c17.674 0 32 14.326 32 32s-14.326 32-32 32h-64v64h96c17.674 0 32 14.326 32 32s-14.326 32-32 32h-128c-17.674 0-32-14.326-32-32z" />
<glyph unicode="&#xe918;" glyph-name="file-png" d="M799.968 320c-30.88-0.032-63.968-31.040-63.968-80 0-48.864 32.992-79.872 63.808-80 7.616 0.128 15.136 1.792 22.112 4.896 3.552 1.568 6.944 3.52 10.080 5.792v21.312c-17.664 0-32 14.336-32 32s14.336 32 32 32h32c17.664 0 32-14.336 32-32v-67.488c0-8.032-3.008-15.776-8.48-21.664-11.104-12.064-24.576-21.728-39.552-28.416s-31.168-10.24-47.584-10.432h-0.384c-75.136 0-128 69.28-128 144s52.864 144 128 144h0.096c23.584-0.064 46.624-7.264 66.048-20.64 14.56-10.016 18.24-29.952 8.224-44.512s-29.952-18.24-44.512-8.224c-8.8 6.080-19.232 9.344-29.888 9.376zM422.24 382.464c13.248 4.256 27.712-0.544 35.808-11.872l101.952-142.752v124.16c0 17.664 14.336 32 32 32s32-14.336 32-32v-224c0-13.92-8.992-26.24-22.24-30.464-13.248-4.256-27.712 0.544-35.808 11.872l-101.952 142.72v-124.128c0-17.664-14.336-32-32-32s-32 14.336-32 32v224c0 13.92 8.992 26.24 22.24 30.464zM144 352c0 17.664 14.336 32 32 32h64c29.696 0 58.208-11.808 79.2-32.8 20.992-21.024 32.8-49.504 32.8-79.2s-11.808-58.208-32.8-79.2c-20.992-20.992-49.504-32.8-79.2-32.8h-32v-32c0-17.664-14.336-32-32-32s-32 14.336-32 32v224zM208 224h32c12.736 0 24.928 5.056 33.952 14.048 8.992 9.024 14.048 21.216 14.048 33.952s-5.056 24.928-14.048 33.952c-9.024 8.992-21.216 14.048-33.952 14.048h-32v-96zM178.752 845.248c-12-12-18.752-28.288-18.752-45.248v-288c0-17.664 14.336-32 32-32s32 14.336 32 32v288h352v-192c0-17.664 14.336-32 32-32h192v-64c0-17.664 14.336-32 32-32s32 14.336 32 32v96c0 8.48-3.36 16.64-9.376 22.624l-224 224c-5.984 6.016-14.144 9.376-22.624 9.376h-384c-16.96 0-33.248-6.752-45.248-18.752zM640 754.752l114.752-114.752h-114.752v114.752z" />
<glyph unicode="&#xe919;" glyph-name="search" d="M918.64 86.646l-200.278 200.24c58.048 69.693 86.995 159.082 80.816 249.571-6.176 90.49-47.005 175.115-113.987 236.27s-154.963 94.133-245.642 92.072c-90.675-2.061-177.069-39.001-241.204-103.136s-101.076-150.527-103.136-241.206c-2.061-90.678 30.916-178.659 92.072-245.642s145.779-107.808 236.272-113.987c90.49-6.179 179.878 22.768 249.568 80.819l200.24-200.282c2.976-2.973 6.506-5.331 10.387-6.941 3.885-1.61 8.048-2.438 12.253-2.438s8.368 0.829 12.253 2.438c3.885 1.61 7.414 3.968 10.387 6.941 2.976 2.973 5.334 6.502 6.941 10.387 1.61 3.885 2.438 8.048 2.438 12.253s-0.829 8.368-2.438 12.253c-1.606 3.885-3.965 7.414-6.941 10.387zM160.001 512.006c0 56.96 16.891 112.643 48.537 160.004s76.626 84.275 129.251 106.073c52.624 21.798 110.531 27.501 166.4 16.389 55.866-11.113 107.181-38.542 147.459-78.82s67.706-91.596 78.819-147.461c11.114-55.866 5.408-113.773-16.387-166.397-21.798-52.627-58.714-97.606-106.074-129.251-47.363-31.648-103.043-48.538-160.006-48.538-76.355 0.083-149.56 30.454-203.552 84.448-53.992 53.99-84.362 127.197-84.447 203.552z" />
<glyph unicode="&#xe91a;" glyph-name="filter" d="M922.4 761.879c-4.925 11.38-13.088 21.060-23.472 27.838s-22.528 10.353-34.928 10.282h-704.001c-12.387-0.025-24.5-3.643-34.871-10.416s-18.553-16.411-23.554-27.743c-5.001-11.332-6.607-23.872-4.621-36.099s7.476-23.614 15.806-32.782l0.32-0.36 270.921-289.281v-307.318c-0.003-11.584 3.136-22.95 9.088-32.89 5.949-9.939 14.483-18.077 24.694-23.546s21.715-8.061 33.283-7.507c11.571 0.557 22.774 4.24 32.413 10.662l128 85.36c8.774 5.843 15.971 13.766 20.944 23.059 4.976 9.296 7.578 19.677 7.578 30.221v221.958l271.28 289.641c8.416 9.125 13.962 20.528 15.939 32.785s0.301 24.825-4.819 36.135zM593.36 446.88c-11.117-11.786-17.325-27.36-17.36-43.562v-221.958l-128-85.36v307.318c0.035 16.259-6.147 31.914-17.28 43.76l-270.721 288.921h704.001l-270.64-289.119z" />
<glyph unicode="&#xe91b;" glyph-name="download" d="M896 352v-224c0-16.973-6.742-33.251-18.746-45.254s-28.282-18.746-45.254-18.746h-640c-16.974 0-33.252 6.742-45.255 18.746s-18.745 28.282-18.745 45.254v224c0 8.486 3.372 16.627 9.372 22.627s14.14 9.373 22.628 9.373c8.487 0 16.626-3.373 22.628-9.373s9.372-14.141 9.372-22.627v-224h640v224c0 8.486 3.373 16.627 9.373 22.627s14.141 9.373 22.627 9.373c8.486 0 16.627-3.373 22.627-9.373s9.373-14.141 9.373-22.627zM489.36 329.36c2.973-2.976 6.502-5.334 10.387-6.947 3.885-1.61 8.048-2.438 12.253-2.438s8.368 0.829 12.253 2.438c3.885 1.613 7.414 3.971 10.387 6.947l160 160c2.973 2.973 5.331 6.502 6.941 10.387s2.438 8.048 2.438 12.253c0 4.205-0.829 8.368-2.438 12.253s-3.968 7.414-6.941 10.387c-2.973 2.973-6.502 5.331-10.387 6.941s-8.048 2.438-12.253 2.438c-4.205 0-8.368-0.829-12.253-2.438s-7.414-3.968-10.387-6.941l-105.36-105.402v370.762c0 8.487-3.373 16.626-9.373 22.628s-14.141 9.372-22.627 9.372c-8.486 0-16.627-3.372-22.627-9.372s-9.373-14.14-9.373-22.628v-370.762l-105.36 105.402c-6.003 6.003-14.147 9.379-22.64 9.379s-16.637-3.376-22.64-9.379c-6.003-6.003-9.378-14.147-9.378-22.64s3.375-16.637 9.378-22.64l160-160z" />
<glyph unicode="&#xe91c;" glyph-name="zoom" d="M854.64 630.64l-224 224c-2.973 2.971-6.506 5.326-10.387 6.932-3.885 1.606-8.048 2.431-12.253 2.428h-384c-16.974 0-33.252-6.743-45.255-18.745s-18.745-28.281-18.745-45.255v-704c0-16.973 6.743-33.251 18.745-45.254s28.281-18.746 45.255-18.746h576c16.973 0 33.251 6.742 45.254 18.746s18.746 28.282 18.746 45.254v512c0.003 4.205-0.822 8.368-2.429 12.25-1.606 3.885-3.962 7.418-6.931 10.39zM640 754.76l114.762-114.76h-114.762v114.76zM800 96h-576v704h352v-192c0-8.486 3.373-16.627 9.373-22.627s14.141-9.373 22.627-9.373h192v-480zM617.84 291.402c18.886 30.006 26.051 65.923 20.131 100.883s-24.515 66.512-52.23 88.627c-27.712 22.118-62.605 33.248-98.006 31.267-35.402-1.984-68.832-16.938-93.904-42.010s-40.026-58.502-42.010-93.904c-1.981-35.402 9.149-70.294 31.267-98.006 22.115-27.715 53.667-46.31 88.627-52.23s70.877 1.245 100.883 20.131l44.762-44.8c2.973-2.973 6.502-5.331 10.387-6.941s8.048-2.438 12.253-2.438c4.205 0 8.368 0.829 12.253 2.438s7.414 3.968 10.387 6.941c2.973 2.973 5.331 6.502 6.941 10.387s2.438 8.048 2.438 12.253c0 4.205-0.829 8.368-2.438 12.253s-3.968 7.414-6.941 10.387l-44.8 44.762zM416 368c0 15.824 4.691 31.29 13.482 44.445s21.286 23.411 35.904 29.466c14.618 6.054 30.704 7.638 46.221 4.554 15.52-3.088 29.773-10.707 40.963-21.894 11.187-11.19 18.806-25.443 21.894-40.963 3.085-15.517 1.501-31.603-4.554-46.221s-16.31-27.114-29.466-35.904c-13.155-8.79-28.621-13.482-44.445-13.482-21.216 0-41.565 8.429-56.57 23.43-15.002 15.005-23.43 35.354-23.43 56.57z" />
<glyph unicode="&#xe91d;" glyph-name="pesel" d="M794.332 521.213c0-8.229-3.267-16.123-9.089-21.942-5.818-5.821-13.712-9.089-21.942-9.089h-155.152c-8.229 0-16.12 3.267-21.942 9.089-5.818 5.818-9.089 13.712-9.089 21.942s3.271 16.12 9.089 21.942c5.821 5.818 13.712 9.089 21.942 9.089h155.152c8.229 0 16.123-3.271 21.942-9.089 5.821-5.821 9.089-13.712 9.089-21.942zM763.302 428.122h-155.152c-8.229 0-16.12-3.271-21.942-9.089-5.818-5.821-9.089-13.712-9.089-21.942s3.271-16.123 9.089-21.942c5.821-5.821 13.712-9.089 21.942-9.089h155.152c8.229 0 16.123 3.267 21.942 9.089 5.821 5.818 9.089 13.712 9.089 21.942s-3.267 16.12-9.089 21.942c-5.818 5.818-13.712 9.089-21.942 9.089zM918.454 738.424v-558.545c0-16.462-6.538-32.247-18.178-43.883-11.636-11.639-27.421-18.178-43.883-18.178h-682.666c-16.459 0-32.245 6.538-43.883 18.178-11.639 11.636-18.177 27.421-18.177 43.883v558.545c0 16.459 6.539 32.245 18.177 43.883s27.424 18.177 43.883 18.177h682.666c16.462 0 32.247-6.539 43.883-18.177 11.639-11.639 18.178-27.424 18.178-43.883zM856.393 179.88v558.545h-682.666v-558.545h682.666zM545.081 311.758c2.057-7.975 0.866-16.437-3.317-23.53-4.183-7.090-11.013-12.232-18.984-14.289s-16.437-0.863-23.53 3.32c-7.090 4.183-12.232 11.010-14.289 18.984-10.2 39.796-50.657 69.818-94.059 69.818-43.405 0-83.821-30.022-94.061-69.818-2.057-7.975-7.197-14.801-14.29-18.984s-15.556-5.378-23.528-3.32c-7.973 2.057-14.801 7.199-18.984 14.289-4.183 7.094-5.377 15.555-3.319 23.53 10.069 37.478 33.872 69.796 66.676 90.531-17.433 17.327-29.327 39.443-34.176 63.541s-2.434 49.090 6.938 71.813c9.373 22.723 25.281 42.155 45.708 55.824 20.427 13.672 44.454 20.97 69.036 20.97 24.579 0 48.606-7.298 69.033-20.97 20.427-13.669 36.336-33.1 45.711-55.824 9.371-22.723 11.785-47.715 6.938-71.813-4.85-24.098-16.744-46.213-34.177-63.541 32.839-20.707 56.664-53.034 66.715-90.531h-0.040zM390.938 428.122c12.276 0 24.275 3.64 34.481 10.457 10.206 6.82 18.159 16.514 22.857 27.853 4.698 11.342 5.927 23.819 3.531 35.859-2.396 12.037-8.304 23.096-16.986 31.775-8.679 8.679-19.735 14.59-31.775 16.983-12.037 2.396-24.517 1.167-35.856-3.531-11.342-4.695-21.032-12.651-27.853-22.857s-10.46-22.205-10.46-34.478c0-16.462 6.538-32.247 18.178-43.883 11.639-11.639 27.425-18.178 43.883-18.178z" />
<glyph unicode="&#xe91e;" glyph-name="phone" d="M539.456 320.195c-61.664 29.984-125.088 92.608-155.296 154.048l83.104 98.816c0.8 0.96 1.568 1.984 2.272 3.072 5.792 8.832 9.28 18.944 10.208 29.44 0.928 10.528-0.768 21.088-4.928 30.784l-84.672 189.151c-5.44 12.544-14.784 23.008-26.656 29.888-11.968 6.912-25.856 9.792-39.584 8.16-0.16-0.032-0.32-0.064-0.48-0.064-54.112-7.264-103.776-33.92-139.712-75.008-35.968-41.12-55.744-93.888-55.712-148.48 0-152.767 60.704-299.263 168.704-407.295 108.032-108 254.528-168.704 407.264-168.704 54.624-0.032 107.392 19.744 148.512 55.712 41.088 35.936 67.744 85.6 75.008 139.712 0 0.16 0.032 0.32 0.064 0.48 1.632 13.728-1.248 27.616-8.16 39.584-6.848 11.872-17.344 21.216-29.888 26.656l-188.96 84.672c-9.792 4.192-20.448 5.888-31.072 4.928-10.592-0.96-20.8-4.576-29.664-10.464-1.024-0.704-2.016-1.44-2.976-2.272l-97.376-82.816zM331.456 799.97l84.416-188.575-83.072-98.784c-0.8-0.928-1.536-1.92-2.176-2.912-6.112-9.216-9.728-19.84-10.464-30.816-0.768-11.008 1.344-22.016 6.112-31.968 0.032-0.064 0.064-0.128 0.096-0.192 35.968-73.6 112.032-148.8 185.856-184.416 0.064-0.032 0.096-0.064 0.16-0.096 10.016-4.736 21.088-6.816 32.128-5.984 11.008 0.832 21.664 4.544 30.816 10.72 0.992 0.672 1.952 1.408 2.848 2.176l97.344 82.784 188.448-84.448c-5.12-38.272-24.192-73.824-53.632-99.584-29.44-25.728-67.2-39.904-106.304-39.872-135.776 0-266.048 53.952-362.080 149.952-96 96.032-149.952 226.272-149.952 362.047v0.032c-0.032 39.104 14.144 76.864 39.872 106.304 25.632 29.312 61.024 48.384 99.584 53.632z" />
<glyph unicode="&#xe91f;" glyph-name="copy" d="M736 704h-576c-8.487 0-16.626-3.372-22.628-9.372s-9.372-14.14-9.372-22.628v-576c0-8.486 3.372-16.627 9.372-22.627s14.14-9.373 22.628-9.373h576c8.486 0 16.627 3.373 22.627 9.373s9.373 14.141 9.373 22.627v576c0 8.487-3.373 16.626-9.373 22.628s-14.141 9.372-22.627 9.372zM704 128h-512v512h512v-512zM896 800v-576c0-8.486-3.373-16.627-9.373-22.627s-14.141-9.373-22.627-9.373c-8.486 0-16.627 3.373-22.627 9.373s-9.373 14.141-9.373 22.627v544h-544c-8.487 0-16.626 3.372-22.628 9.372s-9.372 14.14-9.372 22.628c0 8.487 3.372 16.626 9.372 22.628s14.14 9.372 22.628 9.372h576c8.486 0 16.627-3.372 22.627-9.372s9.373-14.14 9.373-22.628z" />
<glyph unicode="&#xe920;" glyph-name="thumbs-up" d="M451.379 878.311c5.421 10.841 16.499 17.689 28.621 17.689 42.435 0 83.133-16.857 113.136-46.863 30.006-30.006 46.864-70.702 46.864-113.137v-64h224c13.619-0.004 27.088-2.905 39.498-8.51 12.413-5.605 23.488-13.787 32.493-24.002s15.738-22.227 19.744-35.245c4.006-13.014 5.197-26.733 3.494-40.243l-47.997-383.968c-2.922-23.197-14.211-44.557-31.741-60.022-17.533-15.466-40.106-24.003-63.482-24.010h-688.010c-16.974 0-33.252 6.742-45.255 18.746s-18.745 28.282-18.745 45.254v352c0 16.973 6.743 33.251 18.745 45.254s28.281 18.746 45.255 18.746h172.223l151.156 302.311zM288 512h-160v-352h160v352zM352 160h463.99c0.003 0-0.003 0 0 0 7.789 0.003 15.318 2.851 21.162 8.003 5.843 5.155 9.606 12.266 10.579 19.997l47.997 383.968c0.566 4.506 0.173 9.107-1.162 13.446-1.338 4.339-3.581 8.342-6.582 11.747s-6.694 6.134-10.829 8.003c-4.134 1.866-8.618 2.832-13.155 2.835-0.003 0 0.003 0 0 0h-256c-17.674 0-32 14.326-32 32v96c0 25.461-10.115 49.879-28.118 67.882-13.494 13.496-30.595 22.559-49.037 26.251l-146.845-293.688v-376.445z" />
<glyph unicode="&#xe921;" glyph-name="thumbs-down" d="M82.745 781.255c12.002 12.003 28.281 18.745 45.255 18.745h688c23.379-0.007 45.958-8.543 63.491-24.009 17.53-15.466 28.816-36.796 31.738-59.991l48-384c1.702-13.51 0.512-27.229-3.494-40.243-4.006-13.018-10.739-25.030-19.744-35.245s-20.080-18.397-32.493-24.003c-12.41-5.603-25.872-8.506-39.488-8.509h-224.010v-64c0-42.435-16.858-83.133-46.864-113.136-30.003-30.006-70.701-46.864-113.136-46.864-12.122 0-23.2 6.848-28.621 17.69l-151.156 302.31h-172.223c-16.974 0-33.252 6.742-45.255 18.746s-18.745 28.282-18.745 45.254v352c0 16.974 6.743 33.252 18.745 45.255zM352 359.555l146.845-293.69c18.442 3.693 35.542 12.755 49.037 26.253 18.003 18.003 28.118 42.422 28.118 67.882v96c0 17.674 14.326 32 32 32h255.99c0.003 0-0.003 0 0 0 4.538 0.003 9.030 0.97 13.165 2.835 4.134 1.869 7.827 4.598 10.829 8.003s5.245 7.408 6.582 11.747c1.334 4.339 1.731 8.912 1.165 13.414l-48 384c-0.973 7.732-4.736 14.842-10.579 19.997-5.843 5.153-13.363 7.998-21.152 8.003h-464v-376.445zM288 736h-160v-352h160v352z" />
<glyph unicode="&#xe922;" glyph-name="exclamation-point" d="M621.568 908.8l-24.218-600.607h-175.544l-24.207 600.607h223.969zM512.604-12.8c-36.321 0-66.181 10.865-89.59 32.604-22.6 22.559-33.894 50.156-33.894 82.749 0 33.434 11.295 61.44 33.894 84.009 23.409 22.569 53.268 33.853 89.59 33.853 35.512 0 64.573-11.284 87.163-33.853 23.409-22.569 35.113-50.575 35.113-84.009 0-32.594-11.704-60.191-35.113-82.749-22.589-21.74-51.651-32.604-87.163-32.604z" />
<glyph unicode="&#xe923;" glyph-name="close" d="M822.64 182.637c2.973-2.973 5.331-6.502 6.941-10.387s2.438-8.048 2.438-12.253c0-4.205-0.829-8.368-2.438-12.253s-3.968-7.414-6.941-10.387c-2.973-2.973-6.502-5.331-10.387-6.941-3.885-1.606-8.048-2.435-12.253-2.435s-8.368 0.829-12.253 2.435c-3.885 1.61-7.414 3.968-10.387 6.941l-265.36 265.402-265.36-265.402c-6.004-6.003-14.148-9.376-22.64-9.376s-16.636 3.373-22.64 9.376c-6.004 6.006-9.378 14.15-9.378 22.64 0 8.493 3.373 16.637 9.378 22.64l265.401 265.36-265.401 265.361c-6.004 6.004-9.378 14.148-9.378 22.64s3.373 16.636 9.378 22.64c6.004 6.004 14.148 9.378 22.64 9.378s16.636-3.373 22.64-9.378l265.36-265.399 265.36 265.399c6.003 6.004 14.147 9.378 22.64 9.378s16.637-3.373 22.64-9.378c6.003-6.004 9.379-14.148 9.379-22.64s-3.376-16.636-9.379-22.64l-265.398-265.361 265.398-265.36z" />
</font>
</defs>
</svg>
